请选择 进入手机版 | 继续访问电脑版

云中漫步

 找回密码
 立即注册
查看: 2907|回复: 89

[剧情] [高分][战争与和平 四部曲][前苏联][War.and.Peace.1965-1968][BlueRay.1080P][俄语&国语.中俄英字幕][MKV/35.3G][百度云]

  [复制链接]
netbeginner

2

主题

9

帖子

11

积分

初级会员

Rank: 2

阅读权限
20
金币
113
贡献
11
在线时间
3 小时
注册时间
2020-11-20
最后登录
2021-4-16
发表于 2021-3-4 11:04:06 | 显示全部楼层 |阅读模式

战争与和平1:安德烈·博尔孔斯基  Война и мир I: Андрей Болконский (1965) 影片大小Size: G
影片描述说明:  

战争与和平1.jpg

导演: 谢尔盖·邦达尔丘克
编剧: 列夫·托尔斯泰 / 谢尔盖·邦达尔丘克 / 瓦西里·索洛维约夫
主演: Ludmila Savelyeva / Sergey Bondarchuk / Vyacheslav Tikhonov / Viktor Stanitsyn / Kira Golovko
类型: 剧情 / 历史 / 战争
制片国家/地区: 苏联
语言: 俄语
上映日期: 1965-07(莫斯科电影节)
片长: 147分钟
又名: War and Peace: Part I
IMDb链接: tt0059884

战争与和平2.jpg

战争与和平2:娜塔莎·罗斯托娃 Война и мир II: Наташа Ростова (1966)
Война и мир II: Наташа Ростова 导演: 谢尔盖·邦达尔丘克
编剧: 列夫·托尔斯泰 / 谢尔盖·邦达尔丘克 / 瓦西里·索洛维约夫
主演: Lyudmila Saveleva / Sergey Bondarchuk / 维亚切斯拉夫·吉洪诺夫
类型: 剧情 / 历史 / 战争
制片国家/地区: 苏联
语言: 俄语
上映日期: 1966-07-23
片长: 100分钟
又名: War and Peace: Part II
IMDb链接: tt0061162

战争与和平3.jpg

战争与和平3:1812年 Война и мир III: 1812 год (1967)
Война и мир III: 1812 год 导演: 谢尔盖·邦达尔丘克
编剧: 列夫·托尔斯泰 / 谢尔盖·邦达尔丘克 / 瓦西里·索洛维约夫
主演: Sergey Bondarchuk / Vyacheslav Tikhonov
类型: 剧情 / 历史 / 战争
制片国家/地区: 苏联
语言: 俄语
上映日期: 1967-11-23
片长: 84分钟
又名: War and Peace: Part III
IMDb链接: tt0062455

战争与和平4.jpg

战争与和平4:皮埃尔·别祖霍夫 Война и мир IV: Пьер Безухов (1967)
Война и мир IV: Пьер Безухов 导演: 谢尔盖·邦达尔丘克
编剧: 列夫·托尔斯泰 / 谢尔盖·邦达尔丘克 / 瓦西里·索洛维约夫
主演: Sergey Bondarchuk / Vyacheslav Tikhonov / Lyudmila Saveleva
类型: 剧情 / 历史 / 战争
制片国家/地区: 苏联
语言: 俄语
上映日期: 1968-11-04(苏联)
片长: 96分钟(德国) / 100分钟
又名: War and Peace: Part IV
IMDb链接: tt0062456

战争与和平4:皮埃尔·别祖霍夫.War.and.Peace.Part.IV.Pierre.Bezukhov.1968.mkv_202.jpg

战争与和平4:皮埃尔·别祖霍夫.War.and.Peace.Part.IV.Pierre.Bezukhov.1968.mkv_202.jpg


General
Complete name                            : 战争与和平1:安德烈·博尔孔斯基.War.and.Peace.Part.I.Andrei.Bolkonsky.1965.mkv
Format                                   : Matroska
Format version                           : Version 4 / Version 2
File size                                : 12.3 GiB
Duration                                 : 2h 27mn
Overall bit rate                         : 11.9 Mbps

Video
ID                                       : 1
Format                                   : HEVC
Format/Info                              : High Efficiency Video Coding
Format profile                           : Main 10@L4@Main
Codec ID                                 : V_MPEGH/ISO/HEVC
Duration                                 : 2h 27mn
Bit rate                                 : 10.0 Mbps
Width                                    : 1 920 pixels
Height                                   : 1 080 pixels
Display aspect ratio                     : 16:9
Frame rate mode                          : Constant
Frame rate                               : 23.976 fps
Color space                              : YUV
Chroma subsampling                       : 4:2:0
Bit depth                                : 10 bits
Bits/(Pixel*Frame)                       : 0.201
Stream size                              : 10.3 GiB (84%)
Writing library                          : x265 3.4+22-ga988fbbac:[Windows][GCC 10.2.0][64 bit] 10bit

Audio #1
ID                                       : 2
Format                                   : AC-3
Format/Info                              : Audio Coding 3
Mode extension                           : CM (complete main)
Format settings, Endianness              : Big
Codec ID                                 : A_AC3
Duration                                 : 2h 27mn
Bit rate mode                            : Constant
Bit rate                                 : 192 Kbps
Channel(s)                               : 2 channels
Channel positions                        : Front: L R
Sampling rate                            : 48.0 KHz
Compression mode                         : Lossy
Stream size                              : 202 MiB (2%)
Title                                    : 上译国语
Language                                 : Chinese
Default                                  : Yes
Forced                                   : Yes

Audio #2
ID                                       : 3
Format                                   : DTS
Format/Info                              : Digital Theater Systems
Mode                                     : 16
Format settings, Endianness              : Big
Codec ID                                 : A_DTS
Duration                                 : 2h 27mn
Bit rate mode                            : Constant
Bit rate                                 : 1 509 Kbps
Channel(s)                               : 6 channels
Channel positions                        : Front: L C R, Side: L R, LFE
Sampling rate                            : 48.0 KHz
Bit depth                                : 24 bits
Compression mode                         : Lossy
Stream size                              : 1.55 GiB (13%)
Title                                    : 俄语
Language                                 : Russian
Default                                  : No
Forced                                   : No

Text #1
ID                                       : 4
Format                                   : ASS
Codec ID                                 : S_TEXT/ASS
Codec ID/Info                            : Advanced Sub Station Alpha
Compression mode                         : Lossless
Title                                    : 简体中文
Language                                 : Chinese
Default                                  : Yes
Forced                                   : Yes

Text #2
ID                                       : 5
Format                                   : UTF-8
Codec ID                                 : S_TEXT/UTF8
Codec ID/Info                            : UTF-8 Plain Text
Language                                 : English
Default                                  : No
Forced                                   : No

Text #3
ID                                       : 6
Format                                   : UTF-8
Codec ID                                 : S_TEXT/UTF8
Codec ID/Info                            : UTF-8 Plain Text
Language                                 : Russian
Default                                  : No
Forced                                   : No

链接:https://pan.baidu.com/s/1zPYAND8Utu_rD4Axa1GGow

注意:若上方有百度云网盘链接,购买前请先点击链接验证是否有效,若失效请勿购买.

本贴资源或提取码需向楼主支付10金币才会显示, VIP会员购买不扣金币,免费查看!

购买资源升级VIP 失效反馈 下载教程




回复

使用道具 举报

netbeginner

2

主题

9

帖子

11

积分

初级会员

Rank: 2

阅读权限
20
金币
113
贡献
11
在线时间
3 小时
注册时间
2020-11-20
最后登录
2021-4-16
 楼主| 发表于 2021-3-4 11:05:18 | 显示全部楼层
沙发就不留给别人了。


回复

使用道具 举报

GundomEXIA

0

主题

42

帖子

42

积分

初级会员

Rank: 2

阅读权限
20
金币
49
贡献
42
在线时间
72 小时
注册时间
2020-7-24
最后登录
2021-8-4
发表于 2021-3-4 11:27:11 | 显示全部楼层
谢谢楼主的无私分享!!!


回复

使用道具 举报

ly82884809

0

主题

182

帖子

182

积分

初级会员

Rank: 2

阅读权限
20
金币
5
贡献
182
在线时间
30 小时
注册时间
2020-9-22
最后登录
2021-7-28
发表于 2021-3-4 11:29:25 来自手机 | 显示全部楼层
感谢楼主分享


回复

使用道具 举报

yurri

0

主题

25

帖子

25

积分

初级会员

Rank: 2

阅读权限
20
金币
118
贡献
25
在线时间
9 小时
注册时间
2021-2-17
最后登录
2021-7-20
发表于 2021-3-4 14:47:01 | 显示全部楼层
感谢楼主分享!!!经典大制作


回复

使用道具 举报

gqr123

0

主题

17

帖子

17

积分

初级会员

Rank: 2

阅读权限
20
金币
196
贡献
17
在线时间
4 小时
注册时间
2021-1-8
最后登录
2021-6-4
发表于 2021-3-4 15:13:34 | 显示全部楼层

感谢楼主分享!!!经典大制作


回复

使用道具 举报

yyhhtt

0

主题

2451

帖子

2463

积分

高级会员

Rank: 4

阅读权限
50
金币
260
贡献
2463
在线时间
113 小时
注册时间
2021-1-18
最后登录
2021-8-5
发表于 2021-3-4 16:59:15 | 显示全部楼层

感谢楼主分享,谢谢


回复

使用道具 举报

avatar

0

主题

55

帖子

57

积分

初级会员

Rank: 2

阅读权限
20
金币
97
贡献
57
在线时间
121 小时
注册时间
2020-9-19
最后登录
2021-8-4
发表于 2021-3-4 17:09:17 | 显示全部楼层
最喜欢这里的电影了。支持好电影


回复

使用道具 举报

ruziliu

0

主题

31

帖子

31

积分

初级会员

Rank: 2

阅读权限
20
金币
117
贡献
31
在线时间
6 小时
注册时间
2021-2-11
最后登录
2021-7-8
发表于 2021-3-6 01:40:49 | 显示全部楼层
感谢楼主分享好片


回复

使用道具 举报

alphajack

0

主题

47

帖子

47

积分

初级会员

Rank: 2

阅读权限
20
金币
76
贡献
47
在线时间
7 小时
注册时间
2021-3-8
最后登录
2021-8-1
发表于 2021-3-9 21:35:30 | 显示全部楼层
感谢分享,很经典


回复

使用道具 举报

手机版|云中漫步

GMT+8, 2021-8-5 09:42

本站所有内容均由网友收集整理,仅供学习和研究使用,您必须在下载后的24个小时之内,从您的电脑中彻底删除相关内容,本站不提供资源存储,也不参与录制、上传。

如果您喜欢该内容,请支持正版,购买正版,得到更好的正版服务。若有遇网友内容侵犯了您任何合法权益请Email联系yunzmbcom@163.com,我们将及时清除。

快速回复 返回顶部 返回列表