请选择 进入手机版 | 继续访问电脑版

云中漫步

 找回密码
 立即注册
查看: 1610|回复: 7

[动作] [角斗士(加长版)][BT超清下载][2000][BluRay.x264.DTS.MKV/20.3G][英语音轨][1080P]

[复制链接]
gameboy1911

1

主题

9

帖子

8

积分

初级会员

Rank: 2

阅读权限
20
金币
29
贡献
8
在线时间
3 小时
注册时间
2018-5-24
最后登录
2018-9-9
发表于 2018-5-24 07:08:58 | 显示全部楼层 |阅读模式
https://www.filmonpaper.com/site/media/2011/05/Gladiator_onesheet_advance_USA-1-500x733.jpg
《角斗士》是由雷德利·斯科特执导,
罗素·克劳、杰昆·菲尼克斯、康妮·尼尔森等主演的动作片,
于2000年5月1日在美国上映。
该片讲述了康茂德在篡位成功后下令杀死了马克西姆斯的妻儿,之后马克西姆斯为了复仇,于是和康茂德在角斗场上展开了一场生死决斗的故事。
2001年,该片获得第73届奥斯卡奖最佳电影奖。

论好莱坞古装片,这部片子绝对是经典中的经典。
论坛搜了下,已经有大大上传720P的高清版本了,
这次补足一个超清1080p的版本,文件比较大,20.3G,给喜欢这部片子的朋友收藏
https://cdn.imagecurl.com/images/96109778836116791872.png
https://cdn.imagecurl.com/images/11874171108149056686.png
https://cdn.imagecurl.com/images/62226181092180104259.png
https://cdn.imagecurl.com/images/86696893307093768807.png

视频信息如下
Video
ID                                       : 1
Format                                   : AVC
Format/Info                              : Advanced Video Codec
Format profile                           : High@L4.1
Format settings, CABAC                   : Yes
Format settings, ReFrames                : 5 frames
Codec ID                                 : V_MPEG4/ISO/AVC
Duration                                 : 2h 50mn
Bit rate                                 : 15.2 Mbps
Width                                    : 1 920 pixels
Height                                   : 816 pixels
Display aspect ratio                     : 2.35:1
Frame rate mode                          : Constant
Frame rate                               : 23.976 (24000/1001) fps
Color space                              : YUV
Chroma subsampling                       : 4:2:0
Bit depth                                : 8 bits
Scan type                                : Progressive
Bits/(Pixel*Frame)                       : 0.405
Stream size                              : 18.2 GiB (89%)
Writing library                          : x264 core 146 r2538 121396c
Encoding settings                        : cabac=1 / ref=5 / deblock=1:-3:-3 / analyse=0x3:0x113 / me=umh / subme=10 / psy=1 / psy_rd=1.00:0.05 / mixed_ref=1 / me_range=32 / chroma_me=1 / trellis=2 / 8x8dct=1 / cqm=0 / deadzone=21,11 / fast_pskip=1 / chroma_qp_offset=-3 / threads=18 / lookahead_threads=4 / sliced_threads=0 / nr=0 / decimate=1 / interlaced=0 / bluray_compat=0 / constrained_intra=0 / bframes=12 / b_pyramid=2 / b_adapt=2 / b_bias=0 / direct=1 / weightb=1 / open_gop=0 / weightp=2 / keyint=240 / keyint_min=23 / scenecut=40 / intra_refresh=0 / rc_lookahead=125 / rc=crf / mbtree=1 / crf=18.0 / qcomp=0.60 / qpmin=0 / qpmax=69 / qpstep=4 / vbv_maxrate=30000 / vbv_bufsize=38000 / crf_max=0.0 / nal_hrd=none / filler=0 / ip_ratio=1.40 / aq=3:0.49
Language                                 : English
Default                                  : Yes
Forced                                   : No
Color range                              : Limited
Color primaries                          : BT.709
Transfer characteristics                 : BT.709
Matrix coefficients                      : BT.709


音频信息如下
Audio
ID                                       : 2
Format                                   : DTS
Format/Info                              : Digital Theater Systems
Mode                                     : 16
Format settings, Endianness              : Big
Codec ID                                 : A_DTS
Duration                                 : 2h 50mn
Bit rate mode                            : Constant
Bit rate                                 : 1 509 Kbps
Channel(s)                               : 6 channels
Channel positions                        : Front: L C R, Side: L R, LFE
Sampling rate                            : 48.0 KHz
Frame rate                               : 93.750 fps (512 spf)
Bit depth                                : 24 bits
Compression mode                         : Lossy
Stream size                              : 1.80 GiB (9%)
Language                                 : English
Default                                  : Yes
Forced                                   : No

质量还不错,虽然比不上原盘的那种2333




Gladiator.2000.EXTENDED.PARAMOUNT.REISSUE.1080p.BluRay.x264.DTS-FGT-[rarbg.to].torrent

51.65 KB, 下载次数: 25

售价: 3 金币  [记录]

BT种子文件

点评

图片附近请插入到内容中。  发表于 2018-5-24 09:37


回复

使用道具 举报

C21

0

主题

993

帖子

766

积分

中级会员

Rank: 3Rank: 3

阅读权限
30
金币
401
贡献
766
在线时间
89 小时
注册时间
2018-4-21
最后登录
2019-6-15
发表于 2018-6-5 22:40:41 | 显示全部楼层
这个资源网上不好找,没想到在这里找到了,真的不错,楼主辛苦了。


回复

使用道具 举报

yjm5014

2

主题

3780

帖子

3654

积分

高级会员

Rank: 4

阅读权限
50
金币
189
贡献
3654
在线时间
197 小时
注册时间
2019-4-25
最后登录
2020-8-13
发表于 2020-1-15 08:36:36 | 显示全部楼层
好片子,就是文件太大了!


回复

使用道具 举报

yjm5014

2

主题

3780

帖子

3654

积分

高级会员

Rank: 4

阅读权限
50
金币
189
贡献
3654
在线时间
197 小时
注册时间
2019-4-25
最后登录
2020-8-13
发表于 2020-3-17 08:54:29 | 显示全部楼层
感谢分享好资源


回复

使用道具 举报

头像被屏蔽

0

主题

6714

帖子

6714

积分

禁止发言

阅读权限
0
金币
229
贡献
6714
在线时间
225 小时
注册时间
2019-7-28
最后登录
2020-8-11
发表于 2020-4-28 19:09:43 | 显示全部楼层
提示: 作者被禁止或删除 内容自动屏蔽


回复

使用道具 举报

yjm5014

2

主题

3780

帖子

3654

积分

高级会员

Rank: 4

阅读权限
50
金币
189
贡献
3654
在线时间
197 小时
注册时间
2019-4-25
最后登录
2020-8-13
发表于 2020-7-16 14:56:52 | 显示全部楼层
感谢分享好资源


回复

使用道具 举报

beimajia

0

主题

429

帖子

429

积分

中级会员

Rank: 3Rank: 3

阅读权限
30
金币
13
贡献
429
在线时间
33 小时
注册时间
2020-3-23
最后登录
2020-8-12
发表于 前天 14:12 | 显示全部楼层
感谢分享好资源


回复

使用道具 举报

【提示】迅雷下载电驴和BT资源时,若提示版权限制或敏感请换迅雷5.8版或者其他BT软件下载,也可以尝试使用百度云离线下载
【注意】请认真参与讨论,勿乱回复灌水,乱灌水严重者封号处理!
您需要登录后才可以回帖 登录 | 立即注册

本版积分规则

手机版|云中漫步

GMT+8, 2020-8-13 13:40

本站所有资源均由网友收集整理,本站不提供资源存储,也不参与录制、上传

若有遇网友内容无意涉及了你任何合法权益请Email联系及时清除,邮件yunzmbcom@163.com

快速回复 返回顶部 返回列表